Autor Tópico: Knight Rider HDTV 720p (2008) *DIMENSION*  (Lida 1378 vezes)

0 Membros e 1 Visitante estão a ver este tópico.

Knight Rider HDTV 720p (2008) *DIMENSION*
« em: 05 de Setembro de 2016 - 22:49 »

Offline DR0N3

  • Sub-Administrador
  • ****
  • Topic Author
  • Mensagens: 1308
  • Reputation Power: 32
  • DR0N3 is working their way up.DR0N3 is working their way up.DR0N3 is working their way up.
Knight Rider HDTV 720p (2008) *DIMENSION*



You are not allowed to view links. Register or Login


:info:




Full Size: 20,7 Gb

Video
ID                                       : 1
Format                                   : AVC
Format/Info                              : Advanced Video Codec
Format profile                           : High@L5.1
Format settings, CABAC                   : Yes
Format settings, ReFrames                : 7 frames
Codec ID                                 : V_MPEG4/ISO/AVC
Duration                                 : 1 h 19 min
Bit rate                                 : 3 483 kb/s
Width                                    : 1 280 pixels
Height                                   : 720 pixels
Display aspect ratio                     : 16:9
Frame rate mode                          : Constant
Frame rate                               : 23.976 (24000/1001) FPS
Color space                              : YUV
Chroma subsampling                       : 4:2:0
Bit depth                                : 8 bits
Scan type                                : Progressive
Bits/(Pixel*Frame)                       : 0.158
Stream size                              : 1.89 GiB (88%)
Writing library                          : x264 core 56 svn-680

Language                                 : English
Default                                  : Yes
Forced                                   : No

Audio
ID                                       : 2
Format                                   : AC-3
Format/Info                              : Audio Coding 3
Mode extension                           : CM (complete main)
Format settings, Endianness              : Big
Codec ID                                 : A_AC3
Duration                                 : 1 h 19 min
Bit rate mode                            : Constant
Bit rate                                 : 384 kb/s
Channel(s)                               : 6 channels
Channel positions                        : Front: L C R, Side: L R, LFE
Sampling rate                            : 48.0 kHz
Frame rate                               : 31.250 FPS (1536 spf)
Compression mode                         : Lossy
Stream size                              : 218 MiB (10%)
Default                                  : Yes
Forced                                   : No


Legendas: : :pt:



:elenco:

Director: Steve Shill
Writers: Dave Andron, Glen A. Larson (characters)
Stars: Justin Bruening, Deanna Russo, Sydney Tamiia Poitier



:sinopse:

When a group of ruthless mercenaries kill a reclusive scientist, his creation, a new model of artificially intelligent supercar, escapes to find his daughter and recruit a ex-soldier to thwart them.


:screenshots:




:trailer:

You are not allowed to view links. Register or Login


:download:

:uploaded:



:legendas:

:banport:
 
:password:




« Última modificação: 05 de Junho de 2017 - 17:39 por Ninj@ »
Queres fazer download a grandes velocidades? Carrega na imagem em baixo e cria conta Premium!
You are not allowed to view links. Register or Login

FOR YOU ALL

Re: Knight Rider HDTV 720p (2008) *DIMENSION*
« Responder #1 em: 06 de Setembro de 2016 - 10:34 »

Offline abeljose

  • Membro_Veterano
  • ****
  • Mensagens: 1398
  • Reputation Power: 10
  • abeljose has no influence.
Muito obrigado.

Re: Knight Rider HDTV 720p (2008) *DIMENSION*
« Responder #2 em: 14 de Janeiro de 2017 - 22:45 »

Offline manuelbalocas

  • Membro_Veterano
  • ****
  • Mensagens: 477
  • Reputation Power: 5
  • manuelbalocas has no influence.
obrigado

Re: Knight Rider HDTV 720p (2008) *DIMENSION*
« Responder #3 em: 16 de Abril de 2017 - 17:50 »

Offline DR0N3

  • Sub-Administrador
  • ****
  • Topic Author
  • Mensagens: 1308
  • Reputation Power: 32
  • DR0N3 is working their way up.DR0N3 is working their way up.DR0N3 is working their way up.
Novos links adicionados
Queres fazer download a grandes velocidades? Carrega na imagem em baixo e cria conta Premium!
You are not allowed to view links. Register or Login

FOR YOU ALL

Re: Knight Rider HDTV 720p (2008) *DIMENSION*
« Responder #4 em: 19 de Abril de 2017 - 09:28 »

Offline marovieira

  • Membro_Veterano
  • ****
  • Mensagens: 379
  • Reputation Power: 2
  • marovieira has no influence.
muito obrigado

Re: Knight Rider HDTV 720p (2008) *DIMENSION*
« Responder #5 em: 24 de Abril de 2017 - 19:52 »

Offline antonio vilela

  • Membro_Senior
  • ***
  • Mensagens: 89
  • Reputation Power: 0
  • antonio vilela has no influence.
E um bom filme obrigado

Re: Knight Rider HDTV 720p (2008) *DIMENSION*
« Responder #6 em: 14 de Junho de 2018 - 22:58 »

Offline adail_eafi

  • Membro_Veterano
  • ****
  • Mensagens: 159
  • Reputation Power: 3
  • adail_eafi has no influence.
Thanks!